» » Daryl Hall & John Oates - Along The Red Ledge
Daryl Hall & John Oates - Along The Red Ledge mp3
Pop
Performer: Daryl Hall & John Oates
Title: Along The Red Ledge
Year 1996
Country US
Label RCA
Catalog Number 669392
Genre: Pop
Rating: 4.7
Votes: 238
MP3 size: 2567 mb
Record From: CD, Album, Reissue, Remastered

Daryl Hall & John Oates - Along The Red Ledge mp3

Tracklist

1The Last Time
Guitar – George Harrison
2:49
2Don't Blame It On Love3:53
3It's A Laugh3:45
4Serious Music4:09
5Alley Katz3:04
6I Don't Wanna Lose You3:45
7August Day3:03
8Pleasure Beach3:08
9Melody For A Memory4:50
10Have I Been Away Too Long4:19

Versions

CategoryArtistTitle (Format)LabelCategoryCountryYear
AFL1-2804Daryl Hall & John Oates Along The Red Ledge ‎(LP, Album)RCAAFL1-2804US1978
AFK1-2804Daryl Hall & John Oates Along The Red Ledge ‎(Cass, Album)RCAAFK1-2804US1978
BVCP-7527, 74321 50650 2Daryl Hall & John Oates Along The Red Ledge ‎(CD, Album, RE, RM)BMG, RCABVCP-7527, 74321 50650 2Japan1997
PL 12804Daryl Hall - John Oates Along The Red Ledge ‎(LP, Album, Promo)RCA VictorPL 12804Italy1978
R28P-1104Daryl Hall & John Oates Along The Red Ledge ‎(CD, Album, RE)RCAR28P-1104Japan1987

Credits

  • Management [Project]Dalita Keumurian
  • Mastered ByPat Martin
  • ProducerDavid Foster
  • Research [Tape], Supervised By [Reissue]Basil Marshall

Barcodes

  • Barcode (Text): 0 7863-66939-2 7
  • Matrix / Runout: 07863669392 + + 68678-02 SONOPRESS USA
  • Mastering SID Code: IFPI LC26
  • Mould SID Code: IFPI 1013

Companies

  • Copyright (c) – BMG Entertainment
  • Manufactured By – BMG Distribution
  • Distributed By – BMG Distribution
  • Made By – Sonopress USA – 68678-02

Video

Album

Along The Red Ledge - Daryl Hall & John Oates. Лента с персональными рекомендациями и музыкальными новинками, радио, подборки на любой вкус, удобное управление своей коллекцией. Along the Red Ledge is the seventh studio album by American pop music duo Hall & Oates. The album was released on August 21, 1978, by RCA Records. The biggest hit from the album was It's a Laugh U. 20, Canada 23. The follow-up single was I Don't Wanna Lose You U. The album foreshadowed what was to come in a few years for the duo, as they shed their previous producer Christopher Bond and went with a more polished sound with David Foster. Along the Red Ledge was the first studio album. Continuing the more rock-oriented approach of Beauty on a Back Street, Along the Red Ledge is more successful than its predecessor, as the duo landed on a polished melodic poprock style that managed to retain their Philly soul influences without drowning their voices in distorted guitar flourishes. They would refine this sound two years later on Voices, the record that established them as poprock superstars. Daryl Hall & John Oates. Songs in album Daryl Hall & John Oates - Along The Red Ledge 1978. Daryl Hall & John Oates - It's A Laugh. Daryl Hall & John Oates - Melody For A Memory. Daryl Hall & John Oates - The Last Time. Daryl Hall & John Oates - I Don't Wanna Lose You. Daryl Hall & John Oates - Have I Been Away Too Long. Daryl Hall & John Oates - Alley Katz. Daryl Hall & John Oat. Along The Red Ledge LP, Album. RCA Victor, RCA Victor. PL 12804, PL12804. Daryl Hall & John Oates: все альбомы, включая Past Times Behind , Legends Live in Concert , Home for Christmas и другие. Play jigsaw puzzles for free Home. Along the Red Ledge, 1978. Album 1978 10 Songs. Поп 1978. Hall & John Oates. SME от лица компании RCA Records Label CMRRA, Warner Chappell, LatinAutor, PEDL, BMI - Broadcast Music Inc. и другие авторские общества 4. Las Vegas Turnaround The Stewardess Song. John Oates. WMG от лица компании Atlantic Records LatinAutor - Warner Chappell, BMI - Broadcast Music Inc. Along The Red Ledge is ranked 33,685th in the overall chart, 3,667th in the 1970s, and 378th in the year 1978. Along The Red Ledge by Daryl Hall & John Oates Year: 1978 Overall rank: 33,685th. Average Rating: 71100 from 16 votes

shustrik
foobar2000 1.4.4 / Dynamic Range Meter 1.1.1
log date: 2019-12-02 22:27:32

--------------------------------------------------------------------------------
Analyzed: Hall & Oates / Along The Red Ledge [US 1978/1996 CD]
--------------------------------------------------------------------------------

DR Peak RMS Duration Track
--------------------------------------------------------------------------------
DR12 -3.27 dB -17.41 dB 3:50 01-It's A Laugh
DR12 -1.42 dB -16.97 dB 4:55 02-Melody For A Memory
DR10 -3.02 dB -16.53 dB 2:54 03-The Last Time
DR13 -1.61 dB -16.64 dB 3:50 04-I Don't Want To Lose You
DR12 -2.36 dB -17.63 dB 4:23 05-Have I Been Away Too Long
DR11 -1.61 dB -13.82 dB 3:06 06-Alley Katz
DR12 0.00 dB -14.15 dB 3:57 07-Don't Blame It On Love
DR12 -1.19 dB -16.40 dB 4:12 08-Serious Music
DR11 -1.47 dB -14.64 dB 3:12 09-Pleasure Beach
DR11 -3.35 dB -19.70 dB 3:04 10-August Day
--------------------------------------------------------------------------------

Number of tracks: 10
Official DR value: DR12

Samplerate: 44100 Hz
Channels: 2
Bits per sample: 16
Bitrate: 725 kbps
Codec: ALAC
================================================================================